Nov

30

2020

Yanik Silver - Ultimate Internet Copywriting Seminar

mitsumi 30-11-2020, 16:29 16:29 Tutorials

Yanik Silver - Ultimate  Internet Copywriting Seminar


Yanik Silver - Ultimate Internet Copywriting Seminar
WEBRip | English | MP4 + MP3 + PDF Guides | 720 x 480 | DX50 ~780 Kbps | 29.970 fps
MP3 | 128 Kbps | 44.1 KHz | 2 channels | ~15 hours | 8.25 GB
Genre: eLearning Video / Business, Sales, Marketing

To communicate on the Internet, you've got to write. To SELL on the Internet, you've got to... copywrite! I feel like I've let you down... Not entirely and certainly not on purpose. You see, you've probably heard me talk about the importance of copywriting. The power of writing words on paper or on the computer screen and getting people to send you money (sometimes lots and lots of money). Of course, you know sales copy is important and I bet you even have a few resources on the subject.

30th Birthday Bash 16 and 17 Jan 2004
Bonus - Mind Mapping Your Sales Letter Interactive Tutorial
Bonus - Winning Offline and Online Ads and Letters Analysis
Seminar Audio
Seminar Videos

Ultimate At-Home Internet Copywriting Workshop - Workbook 1.pdf
Ultimate At-Home Internet Copywriting Workshop - Workbook 2.pdf
Ultimate At-Home Internet Copywriting Workshop - Workbook 3.pdf
Ultimate At-Home Internet Copywriting Workshop - Workbook 4.pdf

Web Copy Secrets Presentation Notes at Dan Kennedy's - Last Ever Copywriting Seminar

General
Complete name : Ultimate At-Home Internet Copywriting Workshop DVD3.avi
Format : AVI
Format/Info : Audio Video Interleave
File size : 446 MiB
Duration : 1 h 7 min
Overall bit rate : 920 kb/s
IsTruncated : Yes

Video
ID : 0
Format : MPEG-4 Visual
Format settings, BVOP : No
Format settings, QPel : No
Format settings, GMC : No warppoints
Format settings, Matrix : Default (H.263)
Codec ID : DX50
Codec ID/Hint : DivX 5
Duration : 1 h 7 min
Bit rate : 780 kb/s
Nominal bit rate : 6 951 kb/s
Width : 720 pixels
Height : 480 pixels
Display aspect ratio : 3:2
Frame rate : 29.970 (30000/1001) FPS
Standard : NTSC
Color space : YUV
Chroma subsampling : 4:2:0
Bit depth : 8 bits
Scan type : Progressive
Compression mode : Lossy
Bits/(Pixel*Frame) : 0.075
Stream size : 378 MiB (85%)
Writing library : DivX 5.2.1 (DrDivX 106) (UTC 2004-09-08)

Audio
ID : 1
Format : MPEG Audio
Format version : Version 1
Format profile : Layer 3
Codec ID : 55
Codec ID/Hint : MP3
Duration : 1 h 7 min
Bit rate mode : Constant
Bit rate : 128 kb/s
Channel(s) : 2 channels
Sampling rate : 44.1 kHz
Compression mode : Lossy
Delay relative to video : 26 ms
Stream size : 62.0 MiB (14%)
Alignment : Split accross interleaves
Interleave, duration : 33 ms (1.00 video frame)
Title : Audio Stream

Download link:

rapidgator_net:
https://rapidgator.net/file/0a2781973d735cdbf421a0504801d194/9t8hb.Yanik.Silver..Ultimate.Internet.Copywriting.Seminar.part01.rar.html
https://rapidgator.net/file/d901e757e00e1b58dde82dc1b1285815/9t8hb.Yanik.Silver..Ultimate.Internet.Copywriting.Seminar.part02.rar.html
https://rapidgator.net/file/48a4b44b085083d7e6fae4cfe3d65992/9t8hb.Yanik.Silver..Ultimate.Internet.Copywriting.Seminar.part03.rar.html
https://rapidgator.net/file/9eed8eb704fa199c6e65bff57dde5569/9t8hb.Yanik.Silver..Ultimate.Internet.Copywriting.Seminar.part04.rar.html
https://rapidgator.net/file/f2bc8fe0131c019ca8a3f3f31d6932bd/9t8hb.Yanik.Silver..Ultimate.Internet.Copywriting.Seminar.part05.rar.html
https://rapidgator.net/file/aaabfeae0e677086dcef7d0297b57384/9t8hb.Yanik.Silver..Ultimate.Internet.Copywriting.Seminar.part06.rar.html
https://rapidgator.net/file/a90373a95baffae69c9046831ad4853d/9t8hb.Yanik.Silver..Ultimate.Internet.Copywriting.Seminar.part07.rar.html
https://rapidgator.net/file/95f01c7b0b34a7a64317ea69b2d7f589/9t8hb.Yanik.Silver..Ultimate.Internet.Copywriting.Seminar.part08.rar.html
https://rapidgator.net/file/25c19b8ff6245f9e02da105bfa41acbd/9t8hb.Yanik.Silver..Ultimate.Internet.Copywriting.Seminar.part09.rar.html

nitroflare_com:
https://nitroflare.com/view/CC03AB545DF63B0/9t8hb.Yanik.Silver..Ultimate.Internet.Copywriting.Seminar.part01.rar
https://nitroflare.com/view/1F10E79AF47FB96/9t8hb.Yanik.Silver..Ultimate.Internet.Copywriting.Seminar.part02.rar
https://nitroflare.com/view/2E761FE46DC45B8/9t8hb.Yanik.Silver..Ultimate.Internet.Copywriting.Seminar.part03.rar
https://nitroflare.com/view/1C5DA160F07BB6A/9t8hb.Yanik.Silver..Ultimate.Internet.Copywriting.Seminar.part04.rar
https://nitroflare.com/view/5EAADCB798695F7/9t8hb.Yanik.Silver..Ultimate.Internet.Copywriting.Seminar.part05.rar
https://nitroflare.com/view/6C3109889F2BD2D/9t8hb.Yanik.Silver..Ultimate.Internet.Copywriting.Seminar.part06.rar
https://nitroflare.com/view/81D2F5CAA7B4848/9t8hb.Yanik.Silver..Ultimate.Internet.Copywriting.Seminar.part07.rar
https://nitroflare.com/view/4B68E56F0B4EA06/9t8hb.Yanik.Silver..Ultimate.Internet.Copywriting.Seminar.part08.rar
https://nitroflare.com/view/D2A88B58B359D6A/9t8hb.Yanik.Silver..Ultimate.Internet.Copywriting.Seminar.part09.rar

uploadgig_com:
https://uploadgig.com/file/download/F74E752dad83c04b/9t8hb.Yanik.Silver..Ultimate.Internet.Copywriting.Seminar.part01.rar
https://uploadgig.com/file/download/402451e5587d7f65/9t8hb.Yanik.Silver..Ultimate.Internet.Copywriting.Seminar.part02.rar
https://uploadgig.com/file/download/E4D4C3494aa2f778/9t8hb.Yanik.Silver..Ultimate.Internet.Copywriting.Seminar.part03.rar
https://uploadgig.com/file/download/d4e55dc3d8Ce492e/9t8hb.Yanik.Silver..Ultimate.Internet.Copywriting.Seminar.part04.rar
https://uploadgig.com/file/download/81A5195D4B15db8f/9t8hb.Yanik.Silver..Ultimate.Internet.Copywriting.Seminar.part05.rar
https://uploadgig.com/file/download/aD9eC69d642D886b/9t8hb.Yanik.Silver..Ultimate.Internet.Copywriting.Seminar.part06.rar
https://uploadgig.com/file/download/94695bb782803C63/9t8hb.Yanik.Silver..Ultimate.Internet.Copywriting.Seminar.part07.rar
https://uploadgig.com/file/download/513dcb03f14F6566/9t8hb.Yanik.Silver..Ultimate.Internet.Copywriting.Seminar.part08.rar
https://uploadgig.com/file/download/3d6D535ebd430dF1/9t8hb.Yanik.Silver..Ultimate.Internet.Copywriting.Seminar.part09.rar


Links are Interchangeable - No Password - Single Extraction

[related-news]

Related News

    {related-news}
[/related-news]